TOP 3 Popular Posts last 7 Days

26 Apr 2012

Hollenthon - Live At Szene, Vienna (04.12.2011 - 720p)


Country of origin: Austria
Genre: Symphonic/Orchestral/Folk/Melodic Death Metal
Lyrical themes: Medieval Tales
Current label: Napalm Records
Release date: 2012
Current lineup:
Martin Schirenc - Bass (1994-2007), Vocals, Guitars, Keyboards (1994-present)
Mike Gröger - Drums (1994-present)
Elena Schirenc - Vocals (female) (1999-present)
Martin Arzberger - Guitars (2007-present)
Max Reif - Bass (2010-present)
Tracklist:
01. Tyrans And Wraiths
02. Woe To The Defeated
03. On The Wings Of A Dove
04. To Fabled Lands
05. To Kingdom Come
06. Homage
07. Son Of Perdition
08. Innocent Sin
09. Deathly Dirges
10. Once We Were King
11. Fire Upon The Blade
12. Ars Moriendi
13. Y Draig Goch
14. Conspirator

Total 1:18:49

Media info:
General
Format : Matroska
File size : 4.24 GiB
Duration : 1h 18mn
Overall bit rate : 7 697 Kbps
Video
Duration : 1h 18mn
Bit rate : 7 096 Kbps
Width : 1 280 pixels
Height : 720 pixels
Display aspect ratio : 16:9
Frame rate : 25.000 fps
Bit depth : 8 bits
Scan type : Progressive
Stream size : 3.91 GiB (92%)
Writing library : x264 core
Audio
Format : AC-3
Duration : 1h 18mn
Bit rate mode : Constant
Bit rate : 448 Kbps
Channel(s) : 6 channels
Channel positions : Front: L C R, Side: L R, LFE
Sampling rate : 48.0 KHz
Bit depth : 16 bits
Compression mode : Lossy
Stream size : 253 MiB (6%)

Sample:


3 comments:

haureus said...

hello , Can you re-upload in another hosting ?

uploaded.to or wupload or hipfile
i wantt this live badly

please do me a favor
thanks

Anonymous said...

please re-upload this show...thanx

Valfar said...

reupload complete :)